<?xml version="1.0" standalone="no"?>
<!DOCTYPE svg PUBLIC "-//W3C//DTD SVG 1.1//EN" "http://www.w3.org/Graphics/SVG/1.1/DTD/svg11.dtd" >
<svg xmlns="http://www.w3.org/2000/svg">
<metadata>Generated by IcoMoon</metadata>
<defs>
<font id="icomoon" horiz-adv-x="1024">
<font-face units-per-em="1024" ascent="870.850439882698" descent="-153.14956011730206" />
<missing-glyph horiz-adv-x="1024" />
<glyph unicode="&#x20;" horiz-adv-x="0" d="" />
<glyph unicode="&#xe900;" glyph-name="account" horiz-adv-x="951" d="M475.423 287.201c-306.586 0-475.423-145.531-475.423-409.846 0-0.012 0-0.027 0-0.041 0-20.579 16.66-37.268 37.228-37.314h876.548c20.573 0.047 37.233 16.735 37.233 37.314 0 0.014 0 0.029 0 0.043v-0.002c-0.164 264.274-169.001 409.846-475.587 409.846zM75.817-85.289c14.664 197.591 148.89 297.738 399.606 297.738s385.024-100.106 399.606-297.738zM475.423 864c-0.785 0.009-1.713 0.014-2.642 0.014-135.051 0-244.531-109.48-244.531-244.531 0-2.944 0.052-5.875 0.155-8.793l-0.012 0.423c-0.574-6.327-0.901-13.685-0.901-21.119 0-136.928 111.002-247.931 247.931-247.931s247.931 111.002 247.931 247.931c0 7.434-0.327 14.792-0.968 22.060l0.067-0.941c0.091 2.495 0.143 5.427 0.143 8.37 0 135.051-109.48 244.531-244.531 244.531-0.929 0-1.856-0.005-2.783-0.016l0.141 0.001zM475.423 416.758c-96.747 6.388-172.801 86.427-172.801 184.229 0 3.562 0.101 7.101 0.3 10.613l-0.022-0.487c-0.136 2.54-0.213 5.514-0.213 8.507 0 93.699 75.958 169.656 169.656 169.656 1.083 0 2.164-0.010 3.242-0.030l-0.162 0.002c0.342 0.002 0.746 0.004 1.151 0.004 94.739 0 171.54-76.801 171.54-171.54 0-2.321-0.046-4.63-0.137-6.929l0.010 0.33c0.177-3.025 0.278-6.563 0.278-10.124 0-97.816-76.077-177.864-172.289-184.202l-0.553-0.029z" />
<glyph unicode="&#xe901;" glyph-name="left-arrow" horiz-adv-x="631" d="M631.45 744.55l-392.499-392.55 392.499-392.55-119.45-119.45-512 512 512 512z" />
<glyph unicode="&#xe902;" glyph-name="right-arrow" horiz-adv-x="631" d="M0 744.55l392.55-392.55-392.55-392.55 119.45-119.45 512 512-512 512z" />
<glyph unicode="&#xe903;" glyph-name="houseware" horiz-adv-x="1031" d="M880.281 756.214h-77.544v107.786h-163.86v-107.786h-488.414l-150.462-302.033h1030.743zM35.933 398.033v-558.033h378.381v261.619h193.124v-261.619h388.495v558.033zM307.638 69.057h-167.29l1.124 180.776h166.166zM889.257 69.057h-166.166v180.762h166.181z" />
<glyph unicode="&#xe904;" glyph-name="favorites" horiz-adv-x="1236" d="M1045.761 825.869c-45.706 24.062-99.877 38.185-157.346 38.185-2.13 0-4.256-0.019-6.377-0.058l0.319 0.005c-102.853-2.041-195.177-45.474-261.311-114.271l-0.117-0.123c-66.251 68.919-158.575 112.353-261.053 114.387l-0.375 0.006h-5.44c-0.221 0-0.482 0.001-0.743 0.001-195.132 0-353.318-158.186-353.318-353.318 0-0.261 0-0.522 0.001-0.784v0.041c0-343.279 593.48-664.5 593.48-664.5 5.143-3.522 11.5-5.624 18.347-5.624 1.22 0 2.424 0.067 3.609 0.197l-0.146-0.013c1.039-0.117 2.243-0.184 3.463-0.184 6.848 0 13.204 2.102 18.46 5.696l-0.112-0.073c5.836 5.44 599.316 321.221 599.316 664.5-1.758 135.855-77.532 253.616-188.774 314.978l-1.881 0.951zM1149.274 504.401c0-261.428-452.083-533.786-528.345-577.357-103.463 60.040-528.345 326.908-528.345 577.456 0.141 147.44 119.626 266.925 267.052 267.066h5.454c1.111 0.017 2.423 0.027 3.737 0.027 91.768 0 172.444-47.49 218.793-119.234l0.619-1.022c7.768-9.491 19.484-15.501 32.604-15.501 10.442 0 19.994 3.807 27.345 10.108l-0.057-0.047c2.863 2.845 4.827 6.592 5.428 10.778l0.012 0.102c47.915 73.47 129.708 121.355 222.684 121.355 54.999 0 106.085-16.756 148.431-45.44l-0.932 0.595c75.81-46.835 125.57-129.478 125.57-223.743 0-1.773-0.018-3.543-0.053-5.308l0.004 0.264z" />
<glyph unicode="&#xe905;" glyph-name="garage" d="M223.997 367.681h576.006v-88.557h-576.006v88.557zM223.997 522.255h576.006v-94.566h-576.006v94.566zM0 864h1024v-135.995h-1024v135.995zM223.997 219.114h576.006v-88.557h-576.006v88.557zM48.338 667.997v-827.997h115.663v742.252h695.999v-742.252h115.663v827.997zM223.997 70.56h576.006v-88.557h-576.006v88.557zM223.997-78.006h576.006v-81.994h-576.006v81.994z" />
<glyph unicode="&#xe906;" glyph-name="bars" horiz-adv-x="1325" d="M0 864h1325.176v-180.706h-1325.176v180.706zM0 442.353h1325.176v-180.706h-1325.176v180.706zM0 20.706h1325.176v-180.706h-1325.176v180.706z" />
<glyph unicode="&#xe907;" glyph-name="free-shipping" horiz-adv-x="1540" d="M1270.394 150.565c-72.281 0-130.877-58.596-130.877-130.877s58.596-130.877 130.877-130.877c72.281 0 130.877 58.596 130.877 130.877v0c-0.111 72.237-58.64 130.766-130.866 130.877h-0.011zM1270.394-18.834c-21.248 0-38.473 17.225-38.473 38.473s17.225 38.473 38.473 38.473c21.248 0 38.473-17.225 38.473-38.473v0c-0.028-21.237-17.236-38.445-38.47-38.473h-0.003zM1257.862 694.65h-226.158c-17.020 0-30.818-13.797-30.818-30.818v0-600.552c0-17.020 13.797-30.818 30.818-30.818h32.67c0.104-0.001 0.228-0.002 0.351-0.002 15.332 0 28.041 11.232 30.347 25.916l0.022 0.174c13.715 85.53 86.98 150.090 175.323 150.090s161.609-64.56 175.189-149.074l0.135-1.016c2.306-14.854 15.005-26.090 30.327-26.090 0.138 0 0.276 0.001 0.414 0.003h32.601c17.020 0 30.818 13.797 30.818 30.818v0 300.276c0 0.002 0 0.005 0 0.007 0 7.536-2.709 14.439-7.206 19.788l0.038-0.047-251.221 300.276c-5.69 6.783-14.169 11.066-23.649 11.069h-0.001zM1062.522 448.256v153.99c0 17.020 13.797 30.818 30.818 30.818v0h135.656c9.48-0.003 17.959-4.286 23.611-11.021l0.039-0.048 128.341-153.99c4.429-5.299 7.119-12.185 7.119-19.7 0-17.003-13.769-30.789-30.766-30.817h-263.951c-0.029 0-0.063 0-0.098 0-16.993 0-30.769 13.776-30.769 30.769 0 0 0 0 0 0v0zM30.818 32.463h78.848c0.117-0.002 0.255-0.003 0.393-0.003 15.323 0 28.021 11.236 30.305 25.918l0.022 0.172c10.163 84.953 81.791 150.18 168.653 150.18 2.423 0 4.834-0.051 7.233-0.151l-0.343 0.011c2.056 0.089 4.467 0.14 6.89 0.14 86.862 0 158.49-65.227 168.574-149.372l0.079-0.808c2.306-14.854 15.005-26.090 30.327-26.090 0.138 0 0.276 0.001 0.414 0.003h386.807c17.020 0 30.818 13.797 30.818 30.818v0 769.95c0 17.020-13.797 30.818-30.818 30.818h-877.714c-17.020 0-30.818-13.797-30.818-30.818v0-769.95c0-0.001 0-0.002 0-0.004 0-16.849 13.521-30.539 30.304-30.813h0.026zM315.685 101.803c-72.281 0-130.877-58.596-130.877-130.877s58.596-130.877 130.877-130.877c72.281 0 130.877 58.596 130.877 130.877v0c-0.111 72.237-58.64 130.766-130.866 130.877h-0.011zM315.685-67.596c-21.248 0-38.473 17.225-38.473 38.473s17.225 38.473 38.473 38.473c21.248 0 38.473-17.225 38.473-38.473v0c-0.028-21.237-17.236-38.445-38.47-38.473h-0.003z" />
<glyph unicode="&#xe908;" glyph-name="fast-delivery" d="M512 74.718c-0.006 0.663-0.009 1.446-0.009 2.23 0 151.946 123.177 275.123 275.123 275.123 14.779 0 29.285-1.165 43.433-3.409l-1.563 0.204c0.93-0.145 2.002-0.228 3.094-0.228 5.337 0 10.212 1.98 13.931 5.245l-0.024-0.021c4.532 3.931 7.386 9.693 7.402 16.122v174.021c0 0.004 0 0.008 0 0.012 0 11.774-9.545 21.319-21.319 21.319-0.004 0-0.009 0-0.013 0h-256.135c-11.782-0.007-21.331-9.56-21.331-21.344 0-0.004 0-0.009 0-0.013v0.001l0.086-85.313c-0.007-11.778-9.553-21.324-21.331-21.331h-213.338c-11.778 0.007-21.324 9.553-21.331 21.331v85.338c0 0.004 0 0.008 0 0.012 0 11.774-9.545 21.319-21.319 21.319-0.004 0-0.009 0-0.013 0h-256.012c-0.004 0-0.008 0-0.012 0-11.774 0-21.319-9.545-21.319-21.319 0-0.004 0-0.009 0-0.013v0.001-512c0-0.004 0-0.008 0-0.012 0-11.774 9.545-21.319 21.319-21.319 0.004 0 0.009 0 0.013 0h472.73c0.002 0 0.004 0 0.006 0 11.781 0 21.331 9.55 21.331 21.331 0 1.066-0.078 2.114-0.229 3.139l0.014-0.116c-1.912 11.848-3.065 25.584-3.182 39.568l-0.001 0.121zM554.515 651.168v-21.849c0.014-11.777 9.565-21.319 21.344-21.319 0.017 0 0.035 0 0.052 0h256.145c0.004 0 0.009 0 0.013 0 11.781 0 21.331 9.55 21.331 21.331 0 3.736-0.96 7.247-2.647 10.3l0.056-0.11-115.86 213.374c-3.695 6.666-10.689 11.104-18.719 11.104-0.012 0-0.023 0-0.035 0h-157.558c0 0 0 0-0.001 0-11.781 0-21.331-9.55-21.331-21.331 0-0.678 0.032-1.348 0.093-2.009l-0.006 0.085zM21.344 608h256c0.004 0 0.008 0 0.012 0 11.774 0 21.319 9.545 21.319 21.319 0 0.004 0 0.009 0 0.013v-0.001l17.272 211.437c0.055 0.573 0.086 1.239 0.086 1.912 0 11.774-9.545 21.319-21.319 21.319-0.009 0-0.017 0-0.026 0h-157.534c-8.024-0.006-15.011-4.442-18.648-10.995l-0.056-0.109-115.86-213.436c-1.631-2.944-2.592-6.455-2.592-10.191 0-11.781 9.55-21.331 21.331-21.331 0.005 0 0.009 0 0.014 0h-0.001zM789.344 309.337c-129.604 0-234.669-105.065-234.669-234.669s105.065-234.669 234.669-234.669c129.604 0 234.669 105.065 234.669 234.669v0c-0.147 129.545-105.124 234.521-234.655 234.669h-0.014zM868.426-4.414c-3.86-3.86-9.192-6.247-15.082-6.247s-11.222 2.387-15.082 6.247l-63.994 63.994c-3.864 3.859-6.255 9.193-6.255 15.086 0 0.001 0 0.002 0 0.003v0 128c0 11.781 9.55 21.331 21.331 21.331s21.331-9.55 21.331-21.331v-119.166l57.751-57.751c3.86-3.86 6.247-9.192 6.247-15.082s-2.387-11.222-6.247-15.082v0z" />
<glyph unicode="&#xe909;" glyph-name="customer-service" horiz-adv-x="1065" d="M1000.448 512.604h-29.123c-48.707 202.965-228.634 351.477-443.249 351.477s-394.541-148.512-442.618-348.372l-0.631-3.105h-20.48c-0.899 0.047-1.953 0.074-3.012 0.074-32.676 0-59.394-25.508-61.328-57.698l-0.008-0.17v-312.893c1.941-32.361 28.66-57.87 61.336-57.87 1.074 0 2.141 0.028 3.201 0.082l-0.149-0.006h96.625c0.912-0.048 1.979-0.076 3.053-0.076 32.677 0 59.395 25.509 61.328 57.7l0.008 0.17v312.893c-1.941 32.361-28.66 57.87-61.336 57.87-1.074 0-2.141-0.028-3.201-0.082l0.149 0.006h-17.9c47.252 171.313 201.689 295.041 385.024 295.041s337.772-123.729 384.363-292.24l0.661-2.802h-9.134c-0.912 0.048-1.979 0.076-3.053 0.076-32.677 0-59.395-25.509-61.328-57.7l-0.008-0.17v-312.893c1.285-29.037 23.121-52.604 51.252-56.57l0.316-0.037c-35.512-59.72-115.302-139.264-292.659-157.082-9.78 18.084-28.603 30.162-50.247 30.162-0.465 0-0.928-0.006-1.39-0.017l0.069 0.001h-108.052c-0.821 0.045-1.782 0.070-2.749 0.070-28.632 0-52.038-22.374-53.688-50.592l-0.007-0.146v-17.039c1.657-28.364 25.063-50.738 53.694-50.738 0.967 0 1.928 0.026 2.882 0.076l-0.133-0.006h108.093c0.503-0.016 1.095-0.026 1.69-0.026 24.353 0 45.055 15.627 52.628 37.4l0.118 0.391c222.74 22.036 314.081 133.693 350.372 206.356h48.62c0.912-0.048 1.979-0.076 3.053-0.076 32.677 0 59.395 25.509 61.328 57.7l0.008 0.17v312.893c-1.941 32.361-28.66 57.87-61.336 57.87-1.074 0-2.141-0.028-3.201-0.082l0.149 0.006z" />
<glyph unicode="&#xe90a;" glyph-name="youtube" horiz-adv-x="1462" d="M1432.348 703.765c-17.503 62.873-65.998 111.396-127.563 128.63l-1.292 0.309c-155.932 20.132-336.306 31.623-519.363 31.623-18.596 0-37.164-0.119-55.704-0.355l2.812 0.028c-15.671 0.199-34.179 0.312-52.713 0.312-183.057 0-363.53-11.059-540.789-32.546l21.331 2.106c-62.809-18.329-111.166-67.072-128.62-128.79l-0.318-1.317c-19.189-102.208-30.164-219.79-30.164-339.937 0-4.159 0.013-8.316 0.039-12.469l-0.003 0.641c-0.026-3.694-0.040-8.063-0.040-12.437 0-119.934 10.977-237.304 31.98-351.16l-1.812 11.831c17.528-62.839 66.016-111.327 127.563-128.547l1.292-0.309c156.060-20.129 336.583-31.617 519.788-31.617 18.448 0 36.869 0.116 55.261 0.349l-2.795-0.028c15.671-0.199 34.179-0.312 52.713-0.312 183.057 0 363.53 11.059 540.789 32.546l-21.331-2.106c62.873 17.503 111.396 65.998 128.63 127.563l0.309 1.292c19.188 102.223 30.163 219.823 30.163 339.987 0 4.142-0.013 8.281-0.039 12.416l0.003-0.638c0.079 6.34 0.124 13.828 0.124 21.327 0 117.237-11.009 231.903-32.049 343.020l1.797-11.413zM585.441 132.762v438.476l380.724-219.238z" />
<glyph unicode="&#xe90b;" glyph-name="account-hover" horiz-adv-x="951" d="M475.423 287.201c-306.586 0-475.423-145.531-475.423-409.846 0-0.012 0-0.027 0-0.041 0-20.579 16.66-37.268 37.228-37.314h876.548c20.573 0.047 37.233 16.735 37.233 37.314 0 0.014 0 0.029 0 0.043v-0.002c-0.164 264.274-169.001 409.846-475.587 409.846zM475.423 864c-0.785 0.009-1.713 0.014-2.642 0.014-135.051 0-244.531-109.48-244.531-244.531 0-2.944 0.052-5.875 0.155-8.793l-0.012 0.423c-0.574-6.327-0.901-13.685-0.901-21.119 0-136.928 111.002-247.931 247.931-247.931s247.931 111.002 247.931 247.931c0 7.434-0.327 14.792-0.968 22.060l0.067-0.941c0.091 2.495 0.143 5.427 0.143 8.37 0 135.051-109.48 244.531-244.531 244.531-0.929 0-1.856-0.005-2.783-0.016l0.141 0.001z" />
<glyph unicode="&#xe90c;" glyph-name="offers" horiz-adv-x="983" d="M935.18 338.735c-1.949 3.87-3.090 8.434-3.090 13.265s1.141 9.395 3.169 13.438l-0.079-0.173 38.19 78.128c5.796 11.481 9.191 25.026 9.191 39.364 0 33.971-19.056 63.492-47.062 78.455l-0.478 0.233-76.813 40.762c-8.12 4.34-13.934 12.085-15.564 21.276l-0.027 0.181-15.027 85.699c-7.431 42.216-43.825 73.88-87.616 73.88-4.514 0-8.949-0.336-13.282-0.986l0.489 0.060-86.118-12.268c-1.276-0.192-2.749-0.302-4.248-0.302-8.161 0-15.562 3.258-20.972 8.544l0.006-0.006-62.508 60.456c-16.003 15.616-37.907 25.25-62.060 25.25s-46.057-9.633-62.078-25.267l0.018 0.017-62.508-60.471c-5.4-5.259-12.786-8.502-20.93-8.502-1.517 0-3.007 0.113-4.464 0.33l0.164-0.020-86.104 12.181c-3.847 0.59-8.286 0.927-12.803 0.927-43.77 0-80.152-31.635-87.528-73.288l-0.079-0.536-15.027-85.656c-1.657-9.372-7.471-17.117-15.43-21.379l-0.161-0.079-76.813-40.762c-28.483-15.196-47.539-44.717-47.539-78.688 0-14.338 3.394-27.882 9.423-39.875l-0.233 0.511 38.19-78.128c1.949-3.87 3.090-8.434 3.090-13.265s-1.141-9.395-3.169-13.438l0.079 0.173-38.19-78.128c-5.796-11.481-9.191-25.026-9.191-39.364 0-33.971 19.056-63.492 47.062-78.455l0.478-0.233 76.813-40.762c8.12-4.34 13.934-12.085 15.564-21.276l0.027-0.181 15.027-85.656c7.412-42.205 43.791-73.865 87.565-73.865 0.025 0 0.050 0 0.075 0h-0.004c4.514 0.004 8.948 0.335 13.283 0.97l-0.495-0.060 86.104 12.181c1.293 0.198 2.786 0.31 4.304 0.31 8.142 0 15.526-3.244 20.931-8.51l-0.006 0.006 62.508-60.456c16.003-15.616 37.907-25.25 62.060-25.25s46.057 9.633 62.078 25.267l-0.018-0.017 62.508 60.456c5.404 5.258 12.793 8.501 20.939 8.501 1.513 0 3-0.112 4.454-0.328l-0.164 0.020 86.104-12.181c3.848-0.59 8.287-0.927 12.805-0.927 43.788 0 80.18 31.666 87.526 73.348l0.078 0.534 15.027 85.656c1.657 9.372 7.471 17.117 15.43 21.379l0.161 0.079 76.813 40.762c28.483 15.196 47.539 44.717 47.539 78.688 0 14.338-3.394 27.882-9.423 39.875l0.233-0.511zM373.098 617.768c0.004 0 0.009 0 0.014 0 59.803 0 108.284-48.48 108.284-108.284s-48.48-108.284-108.284-108.284c-59.803 0-108.284 48.48-108.284 108.284 0 0.005 0 0.010 0 0.015v-0.001c0.058 59.793 48.53 108.245 108.325 108.269h0.002zM317.265 136.227c-5.385-5.612-12.947-9.099-21.323-9.099-16.311 0-29.535 13.223-29.535 29.535 0 8.376 3.487 15.938 9.089 21.313l389.768 389.783c5.296 5.082 12.501 8.211 20.436 8.211 16.311 0 29.535-13.223 29.535-29.535 0-7.935-3.129-15.139-8.221-20.446l0.010 0.010zM609.389 86.218c-59.803 0-108.284 48.48-108.284 108.284s48.48 108.284 108.284 108.284c59.803 0 108.284-48.48 108.284-108.284 0-0.005 0-0.010 0-0.015v0.001c-0.066-59.771-48.51-108.206-108.279-108.255h-0.005zM609.389 243.716c-27.181 0-49.215-22.034-49.215-49.215s22.034-49.215 49.215-49.215c27.181 0 49.215 22.034 49.215 49.215v0c-0.033 27.167-22.047 49.182-49.212 49.215h-0.003zM373.156 558.713c-27.181 0-49.215-22.034-49.215-49.215s22.034-49.215 49.215-49.215c27.181 0 49.215 22.034 49.215 49.215v0c-0.033 27.167-22.047 49.182-49.212 49.215h-0.003z" />
<glyph unicode="&#xe90d;" glyph-name="shopping-cart-hover" horiz-adv-x="1134" d="M897.72 119.020c-76.252-1.040-137.667-63.097-137.667-139.498 0-77.049 62.461-139.51 139.51-139.51 77.045 0 139.503 62.454 139.51 139.497v0.001c-0.625 77.184-63.34 139.512-140.611 139.512-0.261 0-0.521-0.001-0.782-0.002h0.040zM1124.721 658.217c-7.864 9.821-19.853 16.056-33.299 16.056-0.029 0-0.059 0-0.088 0h-829.558l-38.175 157.614c-4.656 18.689-21.294 32.318-41.114 32.318-0.047 0-0.093 0-0.139 0h-139.953c-23.119 0-41.861-18.742-41.861-41.861s18.742-41.861 41.861-41.861v0h106.496l137.83-569.344c4.73-18.586 21.318-32.113 41.064-32.113 0.064 0 0.128 0 0.192 0h660.142c19.619 0.010 36.114 13.371 40.894 31.49l0.066 0.295 103.383 411.73c0.767 2.983 1.207 6.409 1.207 9.936 0 9.762-3.371 18.737-9.014 25.824l0.065-0.084zM384.492 119.020c-76.252-1.040-137.667-63.097-137.667-139.498 0-77.049 62.461-139.51 139.51-139.51 77.045 0 139.503 62.454 139.51 139.497v0.001c-0.625 77.184-63.34 139.512-140.611 139.512-0.261 0-0.521-0.001-0.782-0.002h0.040z" />
<glyph unicode="&#xe90e;" glyph-name="pulley" d="M462.632 395.96c-11.945-11.944-19.333-28.444-19.333-46.67 0-36.449 29.548-65.998 65.998-65.998s65.998 29.548 65.998 65.998c0 18.226-7.388 34.727-19.333 46.67v0c-11.951 11.924-28.446 19.297-46.664 19.297s-34.713-7.373-46.665-19.298l0.001 0.001zM1015.217 719.472c-5.428 5.426-12.926 8.782-21.208 8.782s-15.78-3.356-21.208-8.782l-244.822-244.88c-22.756 39.034-54.356 70.639-92.182 92.75l-1.204 0.65 244.88 244.808c5.343 5.414 8.643 12.856 8.643 21.068 0 16.568-13.431 29.999-29.999 29.999-8.216 0-15.661-3.303-21.079-8.653l-262.343-262.357c-20.030 5.674-43.033 8.936-66.799 8.936-70.125 0-133.616-28.402-179.598-74.33l0.002 0.002c-78.531-78.531-96.198-307.474-99.040-415.802l-83.968-83.968c-5.426-5.428-8.782-12.926-8.782-21.208s3.356-15.78 8.782-21.208v0c9.053-9.047 14.653-21.549 14.653-35.359 0-27.608-22.381-49.989-49.989-49.989s-49.989 22.381-49.989 49.989c0 13.81 5.6 26.312 14.653 35.359v0c5.43 5.432 8.789 12.935 8.789 21.223 0 16.579-13.44 30.019-30.019 30.019-8.291 0-15.797-3.361-21.23-8.796v0c-19.895-19.902-32.2-47.393-32.2-77.757 0-60.744 49.243-109.986 109.986-109.986s109.986 49.243 109.986 109.986c0 19.69-5.174 38.172-14.237 54.16l0.285-0.546 65.695 65.738c109.28 2.885 337.271 20.509 415.802 99.040 45.912 45.977 74.304 109.459 74.304 179.572 0 23.753-3.259 46.745-9.353 68.553l0.427-1.788 262.346 262.346c5.426 5.428 8.782 12.926 8.782 21.208s-3.356 15.78-8.782 21.208v0zM598.391 260.215c-22.801-22.803-54.302-36.907-89.096-36.907-69.585 0-125.995 56.41-125.995 125.995s56.41 125.995 125.995 125.995c34.795 0 66.295-14.104 89.096-36.907v0c22.767-22.815 36.845-54.307 36.845-89.088s-14.078-66.274-36.848-89.090l0.002 0.002z" />
<glyph unicode="&#xe90f;" glyph-name="repairing-service" d="M1020.768 408.844c-3.745 14.602-16.789 25.223-32.314 25.223-0.212 0-0.423-0.002-0.634-0.006h0.032c-0.424-0.006-0.924-0.009-1.425-0.009-62.433 0-113.046 50.612-113.046 113.046 0 33.144 14.264 62.957 36.988 83.635l0.091 0.082c5.689 5.219 9.242 12.688 9.242 20.986 0 6.685-2.306 12.831-6.165 17.687l0.045-0.058c-24.208 30.607-50.834 57.487-80.153 81.166l-0.964 0.753c-4.828 3.878-11.031 6.224-17.781 6.224-8.368 0-15.894-3.605-21.11-9.346l-0.021-0.023c-21.529-22.529-51.813-36.534-85.368-36.534-15.219 0-29.765 2.881-43.123 8.128l0.801-0.277c-41.095 17.749-69.333 57.928-69.333 104.703 0 2.271 0.067 4.526 0.198 6.764l-0.014-0.309c0.033 0.511 0.051 1.108 0.051 1.709 0 14.551-10.952 26.543-25.062 28.184l-0.132 0.013c-17.696 2.173-38.181 3.413-58.956 3.413-19.813 0-39.363-1.128-58.588-3.322l2.351 0.218c-14.33-1.642-25.357-13.701-25.357-28.336 0-0.339 0.006-0.677 0.018-1.013l-0.001 0.049c0.046-1.203 0.071-2.616 0.071-4.034 0-47.136-28.624-87.587-69.438-104.918l-0.746-0.281c-12.305-4.74-26.541-7.486-41.419-7.486-33.511 0-63.768 13.93-85.297 36.316l-0.037 0.039c-5.236 5.716-12.734 9.286-21.066 9.286-6.657 0-12.781-2.279-17.636-6.1l0.061 0.046c-30.963-24.421-58.14-51.305-82.064-80.927l-0.756-0.967c-3.905-4.835-6.269-11.056-6.269-17.828 0-8.339 3.583-15.841 9.294-21.051l0.022-0.020c22.974-20.849 37.341-50.825 37.341-84.156 0-15.732-3.201-30.717-8.987-44.339l0.28 0.743c-19.11-41.205-60.125-69.27-107.694-69.27-1.305 0-2.605 0.021-3.9 0.063l0.189-0.005c-0.562 0.040-1.217 0.063-1.878 0.063-14.452 0-26.333-11.005-27.722-25.091l-0.009-0.115c-2.18-17.763-3.423-38.326-3.423-59.18 0-20.165 1.163-40.059 3.426-59.618l-0.224 2.384c3.972-14.624 17.13-25.203 32.758-25.203 0.29 0 0.579 0.004 0.867 0.011l-0.043-0.001c0.383 0.005 0.835 0.007 1.288 0.007 46.827 0 86.957-28.668 103.798-69.411l0.273-0.745c5.249-12.628 8.297-27.297 8.297-42.677 0-33.186-14.192-63.058-36.838-83.878l-0.082-0.074c-5.686-5.207-9.239-12.664-9.239-20.951 0-6.682 2.309-12.824 6.174-17.672l-0.044 0.057c24.184-30.607 50.765-57.493 80.029-81.197l0.952-0.747c4.838-3.919 11.069-6.292 17.853-6.292 8.366 0 15.889 3.608 21.099 9.353l0.021 0.024c21.504 22.548 51.778 36.568 85.327 36.568 15.217 0 29.761-2.885 43.114-8.137l-0.8 0.277c41.171-17.667 69.483-57.857 69.483-104.66 0-2.282-0.067-4.548-0.2-6.796l0.015 0.31c-0.033-0.515-0.052-1.117-0.052-1.724 0-14.542 10.939-26.529 25.038-28.181l0.133-0.013c17.695-2.178 38.179-3.42 58.952-3.42 19.814 0 39.364 1.13 58.589 3.33l-2.349-0.218c14.33 1.635 25.358 13.692 25.358 28.325 0 0.352-0.006 0.702-0.019 1.051l0.001-0.050c-0.047 1.219-0.073 2.65-0.073 4.087 0 47.096 28.606 87.51 69.391 104.816l0.746 0.281c12.332 4.77 26.604 7.534 41.521 7.534 33.497 0 63.738-13.936 85.243-36.326l0.038-0.040c5.245-5.703 12.743-9.264 21.073-9.264 6.651 0 12.772 2.271 17.63 6.079l-0.062-0.047c30.959 24.426 58.136 51.309 82.063 80.927l0.756 0.967c3.919 4.834 6.293 11.060 6.293 17.841 0 8.344-3.593 15.848-9.317 21.050l-0.023 0.021c-22.988 20.85-37.366 50.835-37.366 84.178 0 15.71 3.192 30.674 8.962 44.28l-0.28-0.744c17.914 40.989 58.002 69.163 104.699 69.409h0.032l6.329-0.173c0.497-0.031 1.078-0.049 1.664-0.049 14.565 0 26.579 10.927 28.29 25.030l0.014 0.137c2.194 17.782 3.446 38.365 3.446 59.241 0 20.152-1.167 40.032-3.436 59.576l0.225-2.378zM511.969 56.826c-163.002 0.019-295.134 132.163-295.134 295.168 0 163.017 132.151 295.168 295.168 295.168s295.168-132.151 295.168-295.168c0-55.876-15.526-108.125-42.499-152.67l0.74 1.317-129.257 129.257c9.047 20.819 14.31 45.070 14.31 70.549 0 99.997-81.064 181.061-181.061 181.061-16.938 0-33.333-2.326-48.882-6.675l1.274 0.304c-6.905-1.999-12.223-7.35-14.141-14.13l-0.035-0.144c-0.4-1.495-0.63-3.211-0.63-4.98 0-5.748 2.425-10.929 6.307-14.577l0.010-0.010s63.808-64.301 85.127-85.645c1.327-2.028 2.117-4.512 2.117-7.181 0-0.819-0.074-1.622-0.217-2.4l0.012 0.081-0.197-1.406c-1.822-23.233-5.268-44.558-10.294-65.265l0.572 2.79c-0.456-0.456-0.901-0.839-1.369-1.308l-1.419-1.456c-18.247-4.579-39.899-8.079-62.055-9.785l-1.371-0.085v0.123l-1.073-0.271c-0.151-0.009-0.328-0.014-0.506-0.014s-0.355 0.005-0.53 0.015l0.024-0.001c-0.019 0-0.041 0-0.063 0-3.847 0-7.323 1.592-9.804 4.154l-0.004 0.004c-22.207 22.207-83.535 83.091-83.535 83.091-3.737 4.007-9.015 6.536-14.885 6.637h-0.018c-9.23-0.277-16.889-6.687-19.056-15.282l-0.030-0.14c-3.991-14.184-6.286-30.473-6.286-47.298 0-100.011 81.075-181.085 181.085-181.085 25.513 0 49.793 5.276 71.81 14.797l-1.173-0.452 130.651-130.651c-44.808-29.121-99.619-46.437-158.474-46.437-0.134 0-0.267 0-0.4 0h0.021z" />
<glyph unicode="&#xe910;" glyph-name="screw-1" horiz-adv-x="1028" d="M210.452 144.932l172.154-17.719 62.44 62.12-172.143 17.708zM333.925 267.741l172.154-17.719 62.44 62.12-172.143 17.708zM99.559 34.634l-52.493-146.674 147.453 52.196 126.815 126.128-172.143 17.708zM737.834 863.126l-32.531-32.348 6.65-187.046-131.073-130.363 172.154-17.719 53.947 53.649 188.019-6.57 32.519 32.267zM457.397 390.549l172.154-17.719 62.44 62.12-172.143 17.708z" />
<glyph unicode="&#xe911;" glyph-name="screw" d="M949.767 657.961c-5.192 6.517-12.945 10.804-21.712 11.327l-0.083 0.004c-0.32 0.012-0.695 0.018-1.073 0.018-8.493 0-16.207-3.331-21.909-8.758l0.013 0.012-40.9-40.9c-5.507-5.251-12.98-8.482-21.208-8.482s-15.701 3.231-21.22 8.494l-42.404 42.404c-5.42 5.438-8.771 12.941-8.771 21.226s3.351 15.788 8.772 21.227l-0.001-0.001 40.827 40.9c5.425 5.43 8.78 12.928 8.78 21.21 0 9.536-4.448 18.033-11.382 23.53l-0.062 0.048c-58.526 46.031-133.284 73.825-214.533 73.825-65.808 0-127.357-18.233-179.871-49.924l1.565 0.876c-8.776-5.342-14.547-14.857-14.547-25.719 0-8.281 3.354-15.778 8.778-21.208v0l509.072-509.134c5.428-5.428 12.925-8.786 21.207-8.789h0.001c1.299 0.006 2.571 0.090 3.821 0.248l-0.154-0.016c9.382 1.2 17.301 6.585 21.927 14.193l0.075 0.133c30.849 50.965 49.103 112.54 49.103 178.379 0 81.405-27.907 156.293-74.676 215.617l0.563-0.741zM592.217 509.787l-67.339 67.339-37.269-37.269 84.611-339.606 77.754 77.742zM674.603 427.401l24.887-99.903 37.514 37.502zM438.103 490.327l-77.742-77.742 84.611-339.594 77.742 77.742zM310.844 363.068l-77.766-77.766 84.611-339.581 77.766 77.754zM183.56 235.834l-104.12-104.12c-3.508-3.51-6.155-7.881-7.598-12.768l-0.054-0.213-70.652-240.51c-0.727-2.46-1.145-5.285-1.145-8.209 0-16.573 13.435-30.009 30.009-30.009 2.875 0 5.655 0.404 8.287 1.159l-0.212-0.052 227.113 67.095z" />
<glyph unicode="&#xe912;" glyph-name="screwdriver" d="M355.433 224.566l-238.989-238.96c-3.889-3.756-6.304-9.017-6.304-14.842 0-11.39 9.234-20.624 20.624-20.624 5.825 0 11.086 2.415 14.837 6.298l238.995 238.995c3.738 3.729 6.050 8.885 6.050 14.581s-2.312 10.852-6.050 14.58v0c-3.778 3.615-8.912 5.84-14.566 5.84-5.668 0-10.814-2.237-14.603-5.875l0.007 0.007zM972.47 864l-111.151-79.394-16.557-49.468c-0.95-2.826-2.473-5.242-4.442-7.211l-290.289-290.332 47.593-47.593 290.346 290.346c1.978 1.951 4.391 3.467 7.079 4.388l0.132 0.039 49.367 16.585 79.394 111.166zM511.048 424.587l-51.343 51.343-37.108-37.022c-3.296-49.663-36.288-90.834-81.244-106.127l-0.847-0.25-17.667-5.884c-12.813-4.35-23.764-11.267-32.711-20.193l-253.626-253.727c-22.238-22.498-35.974-53.44-35.974-87.591 0-68.827 55.795-124.622 124.622-124.622 34.151 0 65.093 13.737 87.603 35.986l253.688 253.702c8.919 8.953 15.835 19.908 20.015 32.132l0.176 0.592 5.913 17.667c15.557 45.794 56.721 78.778 106.013 82.071l0.365 0.020 36.978 37.036zM410.598 169.43l-238.946-238.989c-10.319-10.019-24.417-16.197-39.957-16.197-31.693 0-57.386 25.692-57.386 57.386 0 15.537 6.174 29.631 16.203 39.964l238.99 238.99c10.534 10.057 24.836 16.246 40.584 16.246s30.050-6.189 40.607-16.268l-0.023 0.022c10.376-10.386 16.794-24.728 16.794-40.569s-6.417-30.184-16.794-40.57v0z" />
<glyph unicode="&#xe913;" glyph-name="search" d="M1017.733-93.399l-297.452 297.452c56.288 69.145 90.383 158.312 90.383 255.442 0 224.316-181.844 406.159-406.159 406.159s-406.159-181.844-406.159-406.159c0-224.316 181.844-406.159 406.159-406.159 97.13 0 186.297 34.095 256.186 90.969l-0.743-0.586 297.452-297.452c3.862-3.864 9.199-6.254 15.094-6.254s11.232 2.39 15.094 6.254l30.147 30.147c3.864 3.862 6.254 9.199 6.254 15.094s-2.39 11.232-6.254 15.094v0zM405.504 138.68c-0.061 0-0.133 0-0.205 0-176.742 0-320.020 143.278-320.020 320.020s143.278 320.020 320.020 320.020c176.742 0 320.020-143.278 320.020-320.020 0-0.072 0-0.144 0-0.216v0.011c-0.303-176.508-143.308-319.513-319.787-319.816h-0.029z" />
<glyph unicode="&#xe914;" glyph-name="basket" horiz-adv-x="1134" d="M897.72 119.020c-76.252-1.040-137.667-63.097-137.667-139.498 0-77.049 62.461-139.51 139.51-139.51 77.045 0 139.503 62.454 139.51 139.497v0.001c-0.625 77.184-63.34 139.512-140.611 139.512-0.261 0-0.521-0.001-0.782-0.002h0.040zM897.72-76.278c-30.492 0.416-55.050 25.231-55.050 55.783 0 30.811 24.977 55.788 55.788 55.788 30.809 0 55.785-24.974 55.788-55.782v0c-0.255-30.865-25.335-55.788-56.236-55.788-0.101 0-0.203 0-0.304 0.001h0.016zM1124.721 658.217c-7.864 9.821-19.853 16.056-33.299 16.056-0.029 0-0.059 0-0.088 0h-829.558l-38.175 157.614c-4.656 18.689-21.294 32.318-41.114 32.318-0.047 0-0.093 0-0.139 0h-139.953c-23.119 0-41.861-18.742-41.861-41.861s18.742-41.861 41.861-41.861v0h106.496l137.83-569.344c4.73-18.586 21.318-32.113 41.064-32.113 0.064 0 0.128 0 0.192 0h660.142c19.619 0.010 36.114 13.371 40.894 31.49l0.066 0.295 103.383 411.73c0.767 2.983 1.207 6.409 1.207 9.936 0 9.762-3.371 18.737-9.014 25.824l0.065-0.084zM954.941 262.748h-593.51l-79.38 327.68h755.057zM384.492 119.020c-76.252-1.040-137.667-63.097-137.667-139.498 0-77.049 62.461-139.51 139.51-139.51 77.045 0 139.503 62.454 139.51 139.497v0.001c-0.625 77.184-63.34 139.512-140.611 139.512-0.261 0-0.521-0.001-0.782-0.002h0.040zM384.492-76.278c-30.492 0.416-55.050 25.231-55.050 55.783 0 30.811 24.977 55.788 55.788 55.788 30.809 0 55.785-24.974 55.788-55.782v0c-0.255-30.865-25.335-55.788-56.236-55.788-0.101 0-0.203 0-0.304 0.001h0.016z" />
<glyph unicode="&#xe915;" glyph-name="tube" d="M14.423 864h117.443c7.965 0 14.423-6.457 14.423-14.423v-483.155c0-7.965-6.457-14.423-14.423-14.423h-117.443c-7.965 0-14.423 6.457-14.423 14.423v483.155c0 7.965 6.457 14.423 14.423 14.423zM526.423-13.712h483.155c7.965 0 14.423-6.457 14.423-14.423v-117.443c0-7.965-6.457-14.423-14.423-14.423h-483.155c-7.965 0-14.423 6.457-14.423 14.423v117.443c0 7.965 6.457 14.423 14.423 14.423zM548.576 22.849h438.863v182.863c-0.394 343.204-278.509 621.318-621.674 621.712h-182.901v-438.863h182.863c100.935-0.123 182.726-81.914 182.849-182.837v-0.012zM274.288 754.288h-36.619c-10.1 0-18.288 8.188-18.288 18.288s8.188 18.288 18.288 18.288h36.576c10.1 0 18.288-8.188 18.288-18.288s-8.188-18.288-18.288-18.288v0zM365.712 754.288h-18.273c-10.1 0-18.288 8.188-18.288 18.288s8.188 18.288 18.288 18.288h18.288c170.845-0.304 324.513-73.595 431.532-190.345l0.395-0.436c2.736-3.178 4.402-7.344 4.402-11.9 0-10.1-8.188-18.288-18.288-18.288-5.134 0-9.773 2.115-13.095 5.522l-0.004 0.004c-100.699 109.87-244.768 178.585-404.89 178.868h-0.052z" />
<glyph unicode="&#xe916;" glyph-name="wishlist-hover" horiz-adv-x="1236" d="M1045.761 825.869c-45.706 24.062-99.877 38.185-157.346 38.185-2.13 0-4.256-0.019-6.377-0.058l0.319 0.005c-102.853-2.041-195.177-45.474-261.311-114.271l-0.117-0.123c-66.251 68.919-158.575 112.353-261.053 114.387l-0.375 0.006h-5.44c-0.221 0-0.482 0.001-0.743 0.001-195.132 0-353.318-158.186-353.318-353.318 0-0.261 0-0.522 0.001-0.784v0.041c0-343.279 593.48-664.5 593.48-664.5 5.143-3.522 11.5-5.624 18.347-5.624 1.22 0 2.424 0.067 3.609 0.197l-0.146-0.013c1.039-0.117 2.243-0.184 3.463-0.184 6.848 0 13.204 2.102 18.46 5.696l-0.112-0.073c5.836 5.44 599.316 321.221 599.316 664.5-1.758 135.855-77.532 253.616-188.774 314.978l-1.881 0.951z" />
<glyph unicode="&#xe917;" glyph-name="warehouse-closed" horiz-adv-x="1139" d="M1125.117 555.196l-542.46 305.404c-3.815 2.142-8.373 3.403-13.225 3.403s-9.41-1.262-13.364-3.475l0.138 0.071-542.476-305.404c-8.253-4.721-13.725-13.47-13.73-23.498v-691.698h133.726v579.465h871.394v-579.465h133.726v691.697c-0.008 10.028-5.48 18.776-13.598 23.429l-0.132 0.070zM377.648 513.492c0-6.458-5.235-11.693-11.693-11.693v0h-107.549c-6.458 0-11.693 5.235-11.693 11.693v0 32.722c0 6.458 5.235 11.693 11.693 11.693v0h107.565c6.458 0 11.693-5.235 11.693-11.693v0zM634.883 513.492c0-6.458-5.235-11.693-11.693-11.693v0h-107.549c-6.458 0-11.693 5.235-11.693 11.693v0 32.722c0 6.458 5.235 11.693 11.693 11.693v0h107.565c6.458 0 11.693-5.235 11.693-11.693v0zM892.118 513.492c0-6.458-5.235-11.693-11.693-11.693v0h-107.549c-6.458 0-11.693 5.235-11.693 11.693v0 32.722c0 6.458 5.235 11.693 11.693 11.693v0h107.565c6.458 0 11.693-5.235 11.693-11.693v0zM931.4 335.767h-723.954c-4.518 0-8.18-3.663-8.18-8.18v0-62.556c0.009-4.514 3.666-8.171 8.18-8.18h723.955c4.518 0 8.18 3.663 8.18 8.18v0 62.556c0 4.518-3.663 8.18-8.18 8.18v0zM931.4 195.85h-723.954c-4.518 0-8.18-3.663-8.18-8.18v0-62.556c0-4.518 3.663-8.18 8.18-8.18v0h723.954c4.518 0 8.18 3.663 8.18 8.18v0 62.556c0 4.518-3.663 8.18-8.18 8.18v0zM931.4 55.852h-723.954c-4.518 0-8.18-3.663-8.18-8.18v0-62.556c0-4.518 3.663-8.18 8.18-8.18v0h723.954c4.518 0 8.18 3.663 8.18 8.18v0 62.556c0 4.518-3.663 8.18-8.18 8.18v0z" />
<glyph unicode="&#xe919;" glyph-name="yatch" horiz-adv-x="1986" d="M584.125-4.885h0.14c80.854-24.867 177.292-45.293 276.307-57.378l8.359-0.831q-14.208 4.44-28.275 9.16c-86.176 28.054-186.768 48.729-290.634 58.032l-5.366 0.388c13.179-2.757 26.289-5.795 39.328-9.347zM969.413-97c-141.48 4.137-275.972 27.496-403.055 67.554l10.476-2.848c-53.336 14.839-114.582 23.368-177.82 23.368-0.069 0-0.139 0-0.208 0h0.012c-1.253 0.009-2.735 0.014-4.218 0.014-144.362 0-277.64-47.458-385.083-127.623l1.7 1.213c95.067 42.22 205.944 66.923 322.558 67.206h0.104c101.873-1.068 199.498-17.647 291.142-47.479l-6.873 1.935c83.72-29.203 180.23-46.183 280.672-46.432h0.115c1.92-0.019 4.189-0.029 6.46-0.029 87.558 0 171.447 15.713 248.999 44.472l-4.957-1.61c-56.594 4.6-107.645 11.949-157.648 22.178l8.351-1.427q-15.399-0.491-30.729-0.491zM246.787 125.017c88.516 29.27 190.408 46.153 296.243 46.153 0.572 0 1.144 0 1.715-0.001h-0.089c92.649-0.021 182.36-12.557 267.548-36.010l-7.067 1.659h0.374c149.273-41.641 345.68-89.452 541.105-89.452 2.583-0.024 5.636-0.037 8.691-0.037 102.902 0 202.21 15.385 295.75 43.981l-7.157-1.882 342.362 657.78s-719.004 72.44-1975.256-544.61v-179.932h18.32c62.561 40.795 134.555 75.51 210.947 100.506l6.514 1.844zM1487.36 464.785c6.814 36.129 36.604 63.596 73.346 66.81l0.309 0.022c32.201-0.958 51.409-32.388 42.973-70.267-6.812-36.134-36.601-63.609-73.345-66.833l-0.31-0.022c-32.201 0.981-51.526 32.434-42.95 70.29zM510.376 483.082c261.195 119.358 564.698 212.312 882.071 263.946l20.837 2.797s-320.022 103.753-948.732-110.553zM1135.184 806.422s-358.485 110.576-723.864 25.237l45.731-142.917c201.632 70.674 434.192 113.425 676.145 117.653l1.988 0.027zM794.809 98.261c-75.024 20.918-161.178 32.951-250.14 32.972h-0.013c-1.77 0.012-3.862 0.020-5.956 0.020-202.849 0-390.122-66.691-541.089-179.343l2.388 1.705c133.565 59.321 289.345 94.031 453.187 94.429h0.148c143.196-1.491 280.427-24.791 409.247-66.724l-9.658 2.719c117.753-41.080 253.495-64.95 394.77-65.266h0.146c225.195 0 449.737 64.986 610.437 221.433-142.012-83.614-312.851-133.004-495.225-133.004-5.746 0-11.481 0.049-17.203 0.147l0.861-0.012c-183.133 0-368.767 39.819-551.901 90.924z" />
<glyph unicode="&#xe91a;" glyph-name="close" d="M1026.003 749.382l-102.6 102.6-410.401-410.401-410.401 410.401-102.6-102.6 410.401-410.401-410.401-410.401 102.6-102.6 410.401 410.401 410.401-410.401 102.6 102.6-410.401 410.401z" />
<glyph unicode="&#xe91d;" glyph-name="premium-badge" horiz-adv-x="875" d="M870.968-6.067l-134.045 230.375c23.194 7.082 47.906 13.324 58.171 31.053 17.112 29.536-13.349 77.997-5.354 109.654 8.241 32.583 56.875 60.786 56.875 93.9 0 32.275-50.275 69.965-58.528 102.4-8.056 31.658 22.318 80.193 5.145 109.667s-74.345 27.142-97.872 49.732c-24.218 23.305-24.144 80.328-53.347 95.948s-76.985-16.039-109.556-8.5c-32.188 7.365-60.947 55.839-94.578 55.839-34.125 0-88.397-54.975-96.91-56.962-32.546-7.563-80.267 24.033-109.568 8.291s-29.005-72.704-53.174-96.046c-23.441-22.688-80.674-20.369-97.786-49.905s13.349-77.972 5.354-109.654-58.343-63.932-58.343-100.66c0-33.126 48.757-61.23 57.048-93.764 8.056-31.658-22.306-80.193-5.145-109.667 9.339-16.039 30.547-22.664 51.718-28.993 2.467-0.74 7.143-3.504 3.985-8.118l-131.084-226.279c-2.701-3.217-4.342-7.403-4.342-11.973 0-10.316 8.363-18.679 18.679-18.679 0.844 0 1.674 0.056 2.488 0.164l-0.095-0.010 90.445-3.775c21.321-2.172 39.66-13.357 51.374-29.63l0.146-0.214 48.264-76.578c2.879-6.833 9.52-11.542 17.261-11.542 7.988 0 14.805 5.014 17.475 12.067l0.043 0.128s135.032 233.176 135.094 233.176c2.714 3.171 5.428 2.467 6.736 1.406 13.912-13.317 31.985-22.389 52.078-25.079l0.479-0.052c16.853 0 32.472 11.819 47.906 24.983 1.234 1.073 4.318 3.269 6.551-1.234l134.921-231.942c2.721-7.164 9.53-12.163 17.505-12.163 7.752 0 14.402 4.723 17.228 11.448l0.046 0.123 48.116 76.677c11.834 16.514 30.155 27.731 51.162 29.917l0.31 0.026 90.445 3.886c0.719-0.098 1.551-0.154 2.395-0.154 10.316 0 18.679 8.363 18.679 18.679 0 4.598-1.661 8.808-4.417 12.062l0.023-0.027zM587.357 203.668c-43.010-25.267-94.734-40.191-149.943-40.191-165.574 0-299.798 134.224-299.798 299.798s134.224 299.798 299.798 299.798c52.79 0 102.394-13.644 145.476-37.599l-1.529 0.78 2.233-1.234 3.158-1.777c90.296-52.91 149.973-149.466 149.973-259.96 0-110.243-59.407-206.612-147.955-258.838l-1.401-0.765zM564.483 681.074l-1.234 0.703c-36.531 21.718-80.543 34.556-127.553 34.556-139.559 0-252.694-113.135-252.694-252.694 0-90.161 47.219-169.293 118.276-214.016l1.048-0.616c2.875-1.826 5.786-3.615 8.76-5.33 36.456-21.597 80.353-34.36 127.231-34.36 139.586 0 252.743 113.157 252.743 252.743 0 93.141-50.382 174.514-125.38 218.354l-1.197 0.646zM594.648 483.911l-42.231-41.157c-11.541-12.575-18.614-29.412-18.614-47.901 0-2.823 0.165-5.607 0.486-8.344l-0.032 0.332 9.969-58.121c3.084-18-7.612-25.773-23.774-17.272l-52.199 27.438c-8.631 4.025-18.738 6.374-29.394 6.374s-20.763-2.349-29.832-6.556l0.438 0.182-52.187-27.438c-16.162-8.5-26.871-0.728-23.774 17.272l9.969 58.121c0.289 2.403 0.453 5.186 0.453 8.008 0 18.49-7.073 35.329-18.661 47.957l0.047-0.052-42.231 41.157c-13.078 12.744-8.994 25.329 9.080 27.956l58.356 8.476c20.521 4.288 37.464 16.966 47.378 34.2l0.183 0.345 26.093 52.878c8.081 16.372 21.307 16.372 29.388 0l26.093-52.878c10.095-17.58 27.039-30.258 47.099-34.464l0.462-0.081 58.356-8.476c18.074-2.616 22.158-15.2 9.080-27.956z" />
<glyph unicode="&#xea90;" glyph-name="facebook" horiz-adv-x="512" d="M418.75 693.992h93.507v162.793c-39.565 4.599-85.406 7.223-131.859 7.223-1.595 0-3.189-0.003-4.782-0.009l0.246 0.001c-134.621 0-227.155-84.804-227.155-240.497v-143.153h-148.879v-182.377h148.879v-458.089h182.377v458.089h142.695l22.904 182.033h-165.656v125.345c0 52.623 14.201 88.64 87.495 88.64z" />
<glyph unicode="&#xea92;" glyph-name="instagram" d="M1021.241 562.934c-0.893 44.844-9.536 87.407-24.637 126.77l0.864-2.563c-27.242 69.009-80.849 122.616-148.082 149.238l-1.776 0.62c-36.818 14.226-79.399 22.868-123.881 23.767l-0.385 0.006c-54.766 2.641-72.199 3.228-211.198 3.228s-156.432-0.587-211.316-2.994c-44.775-0.944-87.249-9.604-126.534-24.697l2.562 0.865c-35.554-13.56-65.855-33.692-90.765-59.125l-0.042-0.043c-25.346-24.954-45.424-55.179-58.465-88.907l-0.586-1.724c-14.298-36.801-23.019-79.37-24.001-123.847l-0.007-0.418c-2.583-54.825-3.228-72.199-3.228-211.316s0.587-156.432 2.994-211.316c0.912-44.851 9.575-87.411 24.697-126.768l-0.865 2.561c27.235-69.013 80.845-122.623 148.083-149.238l1.775-0.62c36.8-14.218 79.36-22.859 123.818-23.767l0.388-0.006c54.59-2.407 72.023-2.994 211.316-2.994s156.432 0.587 211.316 2.994c44.843 0.89 87.406 9.533 126.768 24.637l-2.562-0.864c69.037 27.197 122.661 80.821 149.24 148.084l0.618 1.774c14.209 36.799 22.849 79.358 23.767 123.814l0.006 0.393c2.407 54.59 2.994 72.023 2.994 211.316s-0.47 156.55-2.876 211.139zM929.025 144.823c-0.36-34.22-6.787-66.833-18.254-96.96l0.644 1.927c-17.64-44.782-52.423-79.565-96.054-96.804l-1.151-0.401c-28.2-10.801-60.809-17.227-94.87-17.608l-0.163-0.001c-54.003-2.407-70.439-2.994-206.854-2.994s-153.028 0.587-206.854 2.994c-34.22 0.356-66.833 6.784-96.959 18.254l1.926-0.644c-23.027 8.626-42.638 21.65-58.66 38.173l-0.039 0.040c-16.518 16.091-29.533 35.691-37.848 57.605l-0.364 1.094c-10.801 28.2-17.227 60.809-17.608 94.87l-0.001 0.163c-2.407 54.003-2.994 70.439-2.994 206.854s0.587 153.028 2.994 206.854c0.356 34.22 6.784 66.833 18.254 96.959l-0.644-1.926c8.614 23.060 21.706 42.683 38.336 58.648l0.053 0.051c16.087 16.524 35.688 29.54 57.606 37.849l1.093 0.364c28.2 10.801 60.809 17.227 94.87 17.608l0.163 0.001c54.003 2.407 70.439 2.994 206.854 2.994s153.028-0.587 206.854-2.994c34.22-0.36 66.833-6.787 96.96-18.254l-1.927 0.644c23.028-8.624 42.639-21.648 58.66-38.172l0.039-0.041c16.518-16.091 29.533-35.691 37.848-57.605l0.364-1.094c10.801-28.2 17.227-60.809 17.608-94.87l0.001-0.163c2.407-54.003 2.994-70.439 2.994-206.854s-0.47-152.499-2.876-206.561zM512.147 614.941c-145.267 0-263.029-117.762-263.029-263.029s117.762-263.029 263.029-263.029c145.267 0 263.029 117.762 263.029 263.029v0c-0.067 145.24-117.789 262.962-263.023 263.029h-0.006zM512.147 181.216c-94.24 0-170.637 76.397-170.637 170.637s76.397 170.637 170.637 170.637c94.24 0 170.637-76.397 170.637-170.637v0c-0.033-94.215-76.418-170.579-170.637-170.579v0zM847.023 625.331c-0.067-33.859-27.531-61.281-61.399-61.281-33.91 0-61.399 27.489-61.399 61.399s27.489 61.399 61.399 61.399c0.083 0 0.165 0 0.247 0h-0.013c33.809-0.133 61.164-27.571 61.164-61.398 0-0.041 0-0.083 0-0.124v0.006z" />
<glyph unicode="&#xea96;" glyph-name="twitter" horiz-adv-x="1260" d="M1260.362 742.559c-43.31-19.428-93.558-33.76-146.18-40.498l-2.681-0.28c53.591 32.226 93.828 81.999 113.13 141.227l0.512 1.818c-47.154-28.471-102.038-50.181-160.505-62.014l-3.312-0.56c-47.265 50.403-114.274 81.804-188.616 81.804-142.682 0-258.349-115.667-258.349-258.349 0-0.042 0-0.084 0-0.126v0.006c-0.008-0.788-0.013-1.719-0.013-2.652 0-19.938 2.193-39.364 6.352-58.049l-0.331 1.77c-215.351 10.879-404.78 113.336-531.498 268.905l-1.051 1.332c-22.178-37.343-35.286-82.325-35.286-130.369 0-89.134 45.117-167.73 113.759-214.197l0.91-0.581c-43.022 1.235-83.057 12.932-117.988 32.62l1.277-0.662v-2.812c0.156-124.622 88.113-228.655 205.326-253.573l1.698-0.302c-19.711-5.404-42.343-8.509-65.701-8.509-0.721 0-1.441 0.003-2.161 0.009l0.111-0.001c-1.202-0.023-2.62-0.036-4.040-0.036-15.874 0-31.37 1.619-46.332 4.7l1.477-0.254c34.256-103.461 128.788-177.344 240.997-180.364l0.35-0.007c-87.217-68.702-198.669-110.192-319.811-110.192-0.211 0-0.422 0-0.634 0h0.033c-0.885-0.006-1.932-0.009-2.98-0.009-20.735 0-41.165 1.304-61.213 3.834l2.386-0.246c111.318-72.702 247.613-115.947 394.009-115.947 0.798 0 1.596 0.001 2.394 0.004h-0.123c1.524-0.011 3.325-0.018 5.129-0.018 403.337 0 730.305 326.969 730.305 730.305 0 1.669-0.006 3.337-0.017 5.004l0.001-0.256c0 11.441-0.383 22.435-0.959 33.428 51.203 36.879 94.246 81.346 128.452 132.248l1.17 1.848z" />
<glyph unicode="&#xe909b;" glyph-name="share" horiz-adv-x="939" d="M906.701 693.35c0-76.574-62.076-138.65-138.65-138.65s-138.65 62.076-138.65 138.65c0 76.556 62.046 138.62 138.595 138.65h0.003c0.015 0 0.033 0 0.051 0 76.574 0 138.65-62.076 138.65-138.65v0zM767.949 522.65c-94.247 0-170.65 76.402-170.65 170.65s76.402 170.65 170.65 170.65c94.247 0 170.65-76.402 170.65-170.65v0c-0.116-94.2-76.449-170.533-170.638-170.65h-0.011zM767.949 800c-58.901 0-106.65-47.749-106.65-106.65s47.749-106.65 106.65-106.65c58.901 0 106.65 47.749 106.65 106.65v0c-0.087 58.866-47.784 106.562-106.641 106.65h-0.008zM906.701 10.701c0-76.574-62.076-138.65-138.65-138.65s-138.65 62.076-138.65 138.65c0 76.574 62.076 138.65 138.65 138.65v0c76.574 0 138.65-62.076 138.65-138.65v0zM767.949-160.051c-94.247 0-170.65 76.402-170.65 170.65s76.402 170.65 170.65 170.65c94.247 0 170.65-76.402 170.65-170.65v0c-0.116-94.2-76.449-170.533-170.638-170.65h-0.011zM767.949 117.299c-58.901 0-106.65-47.749-106.65-106.65s47.749-106.65 106.65-106.65c58.901 0 106.65 47.749 106.65 106.65v0c-0.058 58.888-47.766 106.614-106.641 106.701h-0.008zM309.35 352c0-76.574-62.076-138.65-138.65-138.65s-138.65 62.076-138.65 138.65c0 76.574 62.076 138.65 138.65 138.65v0c76.574 0 138.65-62.076 138.65-138.65v0zM170.65 181.299c-94.225 0.029-170.598 76.42-170.598 170.65 0 94.247 76.402 170.65 170.65 170.65 94.211 0 170.591-76.344 170.65-170.542v-0.006c-0.058-94.262-76.443-170.665-170.692-170.752h-0.008zM170.65 458.65c-58.879-0.029-106.598-47.767-106.598-106.65 0-58.901 47.749-106.65 106.65-106.65s106.65 47.749 106.65 106.65c0 0.018 0 0.036 0 0.054v-0.003c-0.116 58.862-47.831 106.54-106.695 106.598h-0.006zM271.411 372.48c-0.043 0-0.093 0-0.144 0-23.555 0-42.65 19.095-42.65 42.65 0 15.834 8.629 29.653 21.44 37.010l0.208 0.11 395.878 225.69c6.068 3.518 13.352 5.594 21.12 5.594 23.562 0 42.663-19.101 42.663-42.663 0-15.794-8.582-29.583-21.338-36.959l-0.206-0.11-395.93-225.69c-6.041-3.53-13.296-5.619-21.039-5.632h-0.004zM667.29 20.48c-0.021 0-0.045 0-0.070 0-7.735 0-14.986 2.071-21.228 5.69l0.203-0.109-395.93 225.69c-12.961 7.485-21.543 21.275-21.543 37.069 0 23.562 19.101 42.663 42.663 42.663 7.768 0 15.052-2.076 21.326-5.704l-0.206 0.11 395.93-225.69c13.019-7.468 21.648-21.286 21.648-37.12 0-23.555-19.095-42.65-42.65-42.65-0.051 0-0.101 0-0.152 0h0.008z" />
</font>
</defs>
</svg>
